港知堂社区

 找回密码
 注册
查看: 6097|回复: 8

[百度] [香港][1988][五郎八卦棍(梁小龙版)][国语/中英硬字幕][DVD5-MKV/1.36GB]

[复制链接]
  • TA的每日心情
    奋斗
    2020-8-21 19:39
  • 签到天数: 1093 天

    [LV.10]以坛为家III

    发表于 2018-7-29 21:17:10 | 显示全部楼层 |阅读模式


    ◎译  名 Eight Diagram Cudgel / The Yang Wu Eight Diagram Cudgel / Like Holy Eight Divine Cane
    ◎片  名 五郎八卦棍/血战五台山/如来八卦棍
    ◎年  代 1988
    ◎地  区 香港
    ◎类  别 武侠/动作
    ◎语  言 国语
    ◎字  幕 中英硬字幕
    ◎豆瓣评分   6.2
    ◎豆瓣链接   http://movie.douban.com/subject/3302561
    ◎文件格式   x264+AC3
    ◎视频尺寸 720×440
    ◎文件大小 1.36G
    ◎片  长 1:28:12
    ◎导  演 杜岗雨
    ◎主  演  梁小龙 / 黄造时 / 管宗祥 / 关海山 / 朱刚 / 陈狄克 / 江岛 / 陈国权     
    ◎简  介 
      北宋初年,辽兵入侵中原。大将军杨继业率众子迎敌,摆下双龙会。然而,金沙滩一役,杨家将死伤殆尽,只五郎、六郎杀出重围。五郎身负重伤,晕倒在五台山下,被清凉寺僧侣所救。方丈智聪、二弟子明空力主收留五郎,大弟子明性极力反对,智聪最终留下五郎。五郎苏醒,惦念父兄,急欲下山,智聪见他伤重未愈,极力劝阻,五郎此后安心养伤。后山竹林中住着一对夫妻,养女若兰本是忠良之后代,三人在此避难。若兰得知寺中有病人,亲制汤药为五郎疗伤补身。不久,若兰怀疑病人就是五郎,便于言语间探问。五郎决意下山。智聪无奈,告知杨家… 
    ◎参    数
    E:\五郎八卦棍(梁小龙版).1988.SUBBED.DVDRip.x264.AC3-DEARL.mkv
      General
        Unique ID : 217749914608946546165020631665759846835 (0xA3D11BAC00DDDFAB91F024222B7181B3)
        Complete name : E:\五郎八卦棍(梁小龙版).1988.SUBBED.DVDRip.x264.AC3-DEARL.mkv
        Format : Matroska
        Format version : Version 2
        File size : 1.37 GiB
        Duration : 1h 28mn
        Overall bit rate : 2 217 Kbps
        Encoded date : UTC 2018-06-13 00:18:49
        Writing application : mkvmerge v4.0.0 ('The Stars were mine') 编译于 Jun  6 2010 16:18:42
        Writing library : libebml v1.0.0 + libmatroska v1.0.0
      Video #1
        ID : 1
        Format : AVC
        Format/Info : Advanced Video Codec
        Format profile : [email protected]
        Format settings, CABAC : Yes
        Format settings, ReFrames : 16 frames
        Codec ID : V_MPEG4/ISO/AVC
        Duration : 1h 28mn
        Bit rate : 1 832 Kbps
        Width : 720 pixels
        Height : 440 pixels
        Display aspect ratio : 16:10
        Frame rate mode : Constant
        Frame rate : 25.000 fps
        Color space : YUV
        Chroma subsampling : 4:2:0
        Bit depth : 8 bits
        Scan type : Progressive
        Bits/(Pixel*Frame) : 0.231
        Stream size : 1.10 GiB (81%)
        Writing library : x264 core 120 r2164 da19765
        Encoding settings : cabac=1 / ref=16 / deblock=1:-2:-1 / analyse=0x3:0x113 / me=umh / subme=9 / psy=1 / psy_rd=1.00:0.00 / mixed_ref=1 / me_range=32 / chroma_me=1 / trellis=1 / 8x8dct=1 / cqm=0 / deadzone=21,11 / fast_pskip=0 / chroma_qp_offset=-2 / threads=6 / sliced_threads=0 / nr=0 / decimate=0 / interlaced=0 / bluray_compat=0 / constrained_intra=0 / bframes=16 / b_pyramid=2 / b_adapt=1 / b_bias=0 / direct=1 / weightb=1 / open_gop=0 / weightp=2 / keyint=250 / keyint_min=25 / scenecut=40 / intra_refresh=0 / rc_lookahead=245 / rc=2pass / mbtree=1 / bitrate=1832 / ratetol=4.0 / qcomp=0.60 / qpmin=10 / qpmax=51 / qpstep=4 / cplxblur=20.0 / qblur=0.5 / ip_ratio=1.40 / aq=1:0.50
        Language : Chinese
        Default : Yes
        Forced : No
      Audio #2
        ID : 2
        Format : AC-3
        Format/Info : Audio Coding 3
        Mode extension : CM (complete main)
        Format settings, Endianness : Big
        Codec ID : A_AC3
        Duration : 1h 28mn
        Bit rate mode : Constant
        Bit rate : 384 Kbps
        Channel count : 6 channels
        Channel positions : Front: L C R, Side: L R, LFE
        Sampling rate : 48.0 KHz
        Bit depth : 16 bits
        Compression mode : Lossy
        Delay relative to video : 200ms
        Stream size : 242 MiB (17%)
        Title : 国语
        Language : Chinese
        Default : Yes
        Forced : No

    ◎截    图






    ◎下载地址

    购买主题 已有 8 人购买  本主题需向作者支付 200 两银子 才能浏览
    缺银子?点我快速充值:银子充值
  • TA的每日心情
    开心
    1 小时前
  • 签到天数: 2573 天

    [LV.Master]伴坛终老

    发表于 2018-9-2 19:16:23 | 显示全部楼层
    梁小龙演的古装电影还是第一次见到。
  • TA的每日心情
    开心
    2020-8-10 11:15
  • 签到天数: 610 天

    [LV.9]以坛为家II

    发表于 2019-3-6 18:26:55 | 显示全部楼层
    谢了下片去
  • TA的每日心情

    2018-11-13 13:51
  • 签到天数: 106 天

    [LV.6]常住居民II

    发表于 2019-5-18 19:12:52 | 显示全部楼层
    响应消费                                 
  • TA的每日心情
    开心
    2019-5-26 14:35
  • 签到天数: 2 天

    [LV.1]初来乍到

    发表于 2019-5-26 20:42:57 | 显示全部楼层
    [香港][1988][五郎八卦棍(梁小龙版)][国语/中英硬字幕][DVD5-MKV/1.36GB] [修改]
  • TA的每日心情
    开心
    2020-7-18 11:15
  • 签到天数: 338 天

    [LV.8]以坛为家I

    发表于 2019-5-26 21:28:27 | 显示全部楼层
    梁小龙有一股狠劲。。。。。。。。。。。。。。。
  • TA的每日心情
    开心
    2019-12-2 15:40
  • 签到天数: 4 天

    [LV.2]偶尔看看I

    发表于 2019-6-12 16:36:17 | 显示全部楼层
    好东西!谢谢大家的分享!谢谢!

    该用户从未签到

    发表于 2020-2-14 08:51:55 | 显示全部楼层
    梁小龙演的古装电影还是第一次见到
  • TA的每日心情

    昨天 00:04
  • 签到天数: 1386 天

    [LV.10]以坛为家III

    发表于 2020-2-14 15:06:54 | 显示全部楼层
    梁小龙不错                 
    您需要登录后才可以回帖 登录 | 注册

    本版积分规则

    港知堂社区·免责声明
    本站仅供网友自由讨论使用,所有个人言论均不代表本站立场,与本站立场无关,本站不会对其內容负任何责任。
    本站内容均经过严格审查筛选,内容健康,如发现违反国家法律法规的內容,请立即联系我们,我们立刻从网站上删除,并致以最深的歉意。

    Archiver|排行榜|港知堂社区 ( 2009-2020 )

    Powered by Discuz! X3.4

    GMT+8, 2020-9-19 01:14 , Processed in 0.067722 second(s), 24 queries , Gzip On.

    返回顶部