港知堂社区

 找回密码
 注册
查看: 2961|回复: 6

[有线2台] [香港][2008][吓死你][粤语/中文字幕][IPTV-MP4][4.86G][百度云]

[复制链接]

843

主题

31

好友

25万

积分

荣誉会员

我真的很想水水!

Rank: 5Rank: 5

  • TA的每日心情
    慵懒
    2017-9-6 21:48
  • 签到天数: 11 天

    [LV.3]偶尔看看II

    升级   100%

    内力
    4555 点
    在线时间
    2613 小时
    银子
    464426 两
    威望
    2050 点
    金叶子
    13 片
    最后登录
    2017-11-27
    注册时间
    2009-6-5
    帖子
    896
    精华
    387
    积分
    253018
    阅读权限
    100
    UID
    5

    荣誉会员奖 分流达人奖 终身成就奖 优秀斑竹奖 忠诚会员奖 特殊贡献奖 金点子奖 原创先锋奖 贴图大师奖 灌水天才奖 新人进步奖 幽默大师奖

    发表于 2017-9-6 21:43:37 |显示全部楼层



    ◎译  名 吓死你
    ◎片  名 嚇死你
    ◎年  代 2008
    ◎产  地 香港
    ◎类  别 剧情/恐怖/悬疑/惊悚
    ◎语  言 粤语
    ◎上映日期 2008-04-03
    ◎IMDb评分  3.5/10 from 71 users
    ◎IMDb链接  http://www.imdb.com/title/tt1205056/
    ◎豆瓣评分 4.8/10 from 1,088 users
    ◎豆瓣链接 https://movie.douban.com/subject/3015840/
    ◎片  长 Hong Kong: 85 分钟
    ◎导  演 钱江汉
    ◎主  演 李灿森
          江若琳
          阮民安
          周俊伟
          曾国祥

    ◎简  介

      1.区瑾(李灿森 饰)嗜赌如命,负债累累还沉迷打麻将,不理快临盘的太太。他被追债受伤入院,赌友黄泉给他一枚古钱,打麻将时把古钱含在嘴里,每一日都糊一次十三么而且只能糊白板。为了在十三日后偿还高额债务,他依然把古钱含着赌钱。可他的每位赌友都恐怖死去,唯独他逢赌必赢。其实黄泉早已告诉他,这种办法很邪门,也自然会经历邪门的事。妻子将要生产了,可妻儿的状况令他恐慌不已……
      2.她(江若琳 饰)做噩梦惊醒了,醒来后的她却惊觉自己正经历着噩梦中的一切恐怖景象。跟她同住的白衣女孩正在烹调人肉,白衣女孩更拿着大刀追杀她,她拼命逃离。她被强奸保安(周俊伟 饰),用斧头劈向保安。没想到保安没有死,而且反过来追杀她……
      她无端躺在了病床上,她惊恐的发现自己被剖开了肚子……
      3.双失青年陈吉隆(阮民安 饰)要参加一个叫《吓死你》的真人秀节目。可是当他返回该公司取回身份证的时候,他被一连串怪异的事情吓到了,才发现是该公司的安排。邻居崩仔告诉吉隆,他的爷爷中风了,可是他无论如何都找不到自己的爷爷,还接到了奇怪的电话,十二点了,他目睹邻居有逝世了的人在当晚回魂……是否冥冥中的安排,让他目睹这一切呢?



    General
    Complete name                  : D:\TVRip\吓死你.Scare 2Die.2008.粤语.中字.HDTV-GZtown.mp4
    Format                         : MPEG-4
    Format profile                 : Base Media
    Codec ID                       : isom (isom/iso2/avc1/mp41)
    File size                      : 4.86 GiB
    Duration                       : 1 h 37 min
    Overall bit rate mode          : Variable
    Overall bit rate               : 7 144 kb/s
    Encoded date                   : UTC 2017-09-05 01:05:53
    Tagged date                    : UTC 2017-09-05 01:05:53
    Writing application            : Lavf51.12.1

    Video
    ID                             : 1
    Format                         : AVC
    Format/Info                    : Advanced Video Codec
    Format profile                 : Main@L5
    Format settings, CABAC         : Yes
    Format settings, ReFrames      : 1 frame
    Format settings, GOP           : M=1, N=15
    Codec ID                       : avc1
    Codec ID/Info                  : Advanced Video Coding
    Duration                       : 1 h 37 min
    Bit rate                       : 7 006 kb/s
    Width                          : 1 280 pixels
    Height                         : 720 pixels
    Display aspect ratio           : 16:9
    Frame rate mode                : Constant
    Frame rate                     : 60.000 FPS
    Color space                    : YUV
    Chroma subsampling             : 4:2:0
    Bit depth                      : 8 bits
    Scan type                      : Progressive
    Bits/(Pixel*Frame)             : 0.127
    Stream size                    : 4.77 GiB (98%)
    Encoded date                   : UTC 2017-09-05 01:05:53
    Tagged date                    : UTC 2017-09-05 01:05:53

    Audio
    ID                             : 2
    Format                         : AAC
    Format/Info                    : Advanced Audio Codec
    Format profile                 : LC
    Codec ID                       : 40
    Duration                       : 1 h 37 min
    Bit rate mode                  : Variable
    Bit rate                       : 128 kb/s
    Channel(s)                     : 2 channels
    Channel positions              : Front: L R
    Sampling rate                  : 48.0 kHz
    Frame rate                     : 46.875 FPS (1024 spf)
    Compression mode               : Lossy
    Stream size                    : 89.2 MiB (2%)
    Encoded date                   : UTC 2017-09-05 01:05:53
    Tagged date                    : UTC 2017-09-05 01:05:53


    购买主题 已有 5 人购买  本主题需向作者支付 100 两银子 才能浏览
    转让3个硬盘1TB、1.5TB、2TB,有兴趣的可以M我 http://www.gztown.com.cn/thread-25410-1-1.html
    缺银子?点我快速充值:银子充值

    0

    主题

    1

    好友

    1306

    积分

    凡人

    Rank: 1

  • TA的每日心情

    昨天 00:47
  • 签到天数: 184 天

    [LV.7]常住居民III

    升级   52.24%

    内力
    437 点
    在线时间
    113 小时
    银子
    1285 两
    威望
    0 点
    金叶子
    0 片
    最后登录
    2018-12-11
    注册时间
    2018-1-16
    帖子
    252
    精华
    0
    积分
    1306
    阅读权限
    20
    UID
    37151
    发表于 2018-1-25 19:22:57 |显示全部楼层
    感谢分享可惜没国语0000000000000000

    0

    主题

    1

    好友

    223

    积分

    凡人

    Rank: 1

  • TA的每日心情
    无聊
    2018-4-12 20:27
  • 签到天数: 2 天

    [LV.1]初来乍到

    升级   8.92%

    内力
    7 点
    在线时间
    1 小时
    银子
    428 两
    威望
    0 点
    金叶子
    0 片
    最后登录
    2018-5-4
    注册时间
    2018-4-10
    帖子
    3
    精华
    0
    积分
    223
    阅读权限
    20
    UID
    37285
    发表于 2018-4-10 20:48:59 |显示全部楼层
    找了好久这个片子

    76

    主题

    1

    好友

    9826

    积分

    结丹修士

    Rank: 4

  • TA的每日心情
    擦汗
    2018-11-28 22:19
  • 签到天数: 1046 天

    [LV.10]以坛为家III

    升级   93.04%

    内力
    2785 点
    在线时间
    1594 小时
    银子
    7695 两
    威望
    1 点
    金叶子
    0 片
    最后登录
    2018-11-28
    注册时间
    2015-5-1
    帖子
    1233
    精华
    0
    积分
    9826
    阅读权限
    50
    UID
    32310
    发表于 2018-5-31 19:08:38 |显示全部楼层
    粤语版也可以看看的。。谢谢分享

    0

    主题

    0

    好友

    593

    积分

    凡人

    Rank: 1

  • TA的每日心情
    无聊
    2018-10-13 10:15
  • 签到天数: 13 天

    [LV.3]偶尔看看II

    升级   23.72%

    内力
    68 点
    在线时间
    20 小时
    银子
    970 两
    威望
    0 点
    金叶子
    0 片
    最后登录
    2018-11-13
    注册时间
    2017-1-23
    帖子
    22
    精华
    0
    积分
    593
    阅读权限
    20
    UID
    34999
    发表于 2018-8-20 21:30:18 |显示全部楼层
    看看这个 文件这么大 修复的吗

    0

    主题

    1

    好友

    204

    积分

    凡人

    Rank: 1

    该用户从未签到

    升级   8.16%

    内力
    2 点
    在线时间
    0 小时
    银子
    403 两
    威望
    0 点
    金叶子
    0 片
    最后登录
    2018-10-11
    注册时间
    2018-10-11
    帖子
    1
    精华
    0
    积分
    204
    阅读权限
    20
    UID
    37655
    发表于 2018-10-11 14:13:32 |显示全部楼层
    感谢分享!!!下载下来浏览一下

    0

    主题

    1

    好友

    3409

    积分

    炼气修士

    Rank: 2

  • TA的每日心情
    擦汗
    昨天 11:57
  • 签到天数: 315 天

    [LV.8]以坛为家I

    升级   36.36%

    内力
    880 点
    在线时间
    151 小时
    银子
    4453 两
    威望
    0 点
    金叶子
    0 片
    最后登录
    2018-12-11
    注册时间
    2017-12-14
    帖子
    555
    精华
    0
    积分
    3409
    阅读权限
    30
    UID
    37023
    发表于 2018-10-11 14:44:54 |显示全部楼层
    这是什么电影没看过
    您需要登录后才可以回帖 登录 | 注册

    港知堂社区·免责声明
    本站仅供网友自由讨论使用,所有个人言论均不代表本站立场,与本站立场无关,本站不会对其內容负任何责任。
    本站内容均经过严格审查筛选,内容健康,如发现违反国家法律法规的內容,请立即联系我们,我们立刻从网站上删除,并致以最深的歉意。

    小黑屋|Archiver|排行榜|港知堂社区 | 港片爱好者之家 ( 2009-2018 )

    Powered by Discuz! X2.5

    GMT+8, 2018-12-12 04:31 , Processed in 0.646049 second(s), 32 queries , Gzip On.

    回顶部