港知堂社区

 找回密码
 注册
查看: 881|回复: 8

[百度] [香港][1994][天龙八部之天山童姥][国粤双语/简繁英字幕][11G/1080p/MKV]蓝光原盘...

[复制链接]

262

主题

2

好友

14万

积分

化神修士

Rank: 6Rank: 6

  • TA的每日心情
    开心
    8 小时前
  • 签到天数: 582 天

    [LV.9]以坛为家II

    升级   10.47%

    内力
    1554 点
    在线时间
    880 小时
    银子
    292303 两
    威望
    5 点
    金叶子
    0 片
    最后登录
    2018-9-24
    注册时间
    2017-1-27
    帖子
    966
    精华
    0
    积分
    149491
    阅读权限
    70
    UID
    35033
    发表于 2018-3-7 20:50:10 |显示全部楼层


    ◎译  名 The Dragon Chronicles the Maidens of Heavenly Mountains
    ◎片  名 天龙八部之天山童姥
    ◎年  代 1994年03月05日
    ◎国  家 中国香港
    ◎类  别 动作/武侠/古装/爱情
    ◎语  言 国粤双语5.1+2.0
    ◎字  幕 简/繁/中英特效/中英对照、字幕
    ◎豆瓣评分    7.3分 33469人评价
    ◎豆瓣链接    https://movie.douban.com/subject/1297517/?source=new_aladdin
    ◎文件格式    Bluray/1080p/mkv
    ◎视频尺寸 1920X1080
    ◎文件大小 11GB
    ◎片  长 01:36:52
    ◎导  演 钱永强
    ◎主  演   林青霞,巩俐,张敏,林文龙,廖启智,徐少强

    ◎简  介 
      武林纷争,各门派都想称雄天下。巫行云和李秋水、李沧海同属同门师姐妹,秋水和沧海同时爱上师兄无崖子,无崖子情系于李秋水的孪生妹妹李沧海,巫行云却爱上同为女子的李沧海,无崖子被叛徒丁春秋所害,巫行云与李秋水为了童姥之名和灵鹫宫主之位,两人苦练邪功,相互攻击。无崖子误中叛徒丁春秋的毒功,被逼归隐,伺机重振雄风。丁春秋大闹少林,欲夺少林二宝“易筋经”和大还丹,并说服李秋水与之联手。少林弟子虚竹得无崖子传百年神功,独斗两大高手。危急之中,巫行云助虚竹和阿紫打败丁春秋,又点化李秋水醒悟后皈依佛门,她自己则在落日的余晖中飘散白发走向远方。阿紫得到玉玲珑成为灵鹫宫新的主人。

    ◎截      图













    ◎下载地址

    购买主题 已有 1 人购买  本主题需向作者支付 500 两银子 才能浏览
    缺银子?点我快速充值:银子充值

    262

    主题

    2

    好友

    14万

    积分

    化神修士

    Rank: 6Rank: 6

  • TA的每日心情
    开心
    8 小时前
  • 签到天数: 582 天

    [LV.9]以坛为家II

    升级   10.47%

    内力
    1554 点
    在线时间
    880 小时
    银子
    292303 两
    威望
    5 点
    金叶子
    0 片
    最后登录
    2018-9-24
    注册时间
    2017-1-27
    帖子
    966
    精华
    0
    积分
    149491
    阅读权限
    70
    UID
    35033
    发表于 2018-3-7 20:51:20 |显示全部楼层
    General
    Unique ID                      : 21747346124889647266045066350162451627 (0x105C62F2675CEE5DE26A2529DE099CAB)
    Complete name                  : F:\蓝光原盘自己压制的影片\新天龙八部之天山童姥.1994.BluRay.1080P.xH264.AC3.5.1-2Audios.TYD.mkv
    Format                         : Matroska
    Format version                 : Version 4 / Version 2
    File size                      : 11.0 GiB
    Duration                       : 1 h 36 min
    Overall bit rate               : 16.2 Mb/s
    Writing application            : Lavf56.30.100
    Writing library                : Lavf56.30.100
    LABEL                          : Chapter 16
    Language                       : eng
    TCHAPTER                       : 145554400

    Video
    ID                             : 1
    Format                         : AVC
    Format/Info                    : Advanced Video Codec
    Format profile                 : High@L4
    Format settings                : CABAC / 1 Ref Frames
    Format settings, CABAC         : Yes
    Format settings, ReFrames      : 1 frame
    Codec ID                       : V_MPEG4/ISO/AVC
    Duration                       : 1 h 36 min
    Bit rate                       : 14.4 Mb/s
    Width                          : 1 920 pixels
    Height                         : 1 080 pixels
    Display aspect ratio           : 16:9
    Frame rate mode                : Constant
    Frame rate                     : 24.000 FPS
    Color space                    : YUV
    Chroma subsampling             : 4:2:0
    Bit depth                      : 8 bits
    Scan type                      : Progressive
    Bits/(Pixel*Frame)             : 0.289
    Stream size                    : 9.73 GiB (89%)
    Title                          : h264_nvenc 1920x1080 16/9
    Default                        : Yes
    Forced                         : No
    Track/Position                 : 0

    Audio #1
    ID                             : 2
    Format                         : AC-3
    Format/Info                    : Audio Coding 3
    Codec ID                       : A_AC3
    Duration                       : 1 h 36 min
    Bit rate mode                  : Constant
    Bit rate                       : 192 kb/s
    Channel(s)                     : 2 channels
    Channel positions              : Front: L R
    Sampling rate                  : 48.0 kHz
    Frame rate                     : 31.250 FPS (1536 SPF)
    Bit depth                      : 16 bits
    Compression mode               : Lossy
    Stream size                    : 133 MiB (1%)
    Title                          : ac3 48000Hz 2Ch.
    Language                       : Chinese_Zhongwen
    Service kind                   : Complete Main
    Default                        : Yes
    Forced                         : No
    Track/Position                 : 1

    Audio #2
    ID                             : 3
    Format                         : AC-3
    Format/Info                    : Audio Coding 3
    Codec ID                       : A_AC3
    Duration                       : 1 h 36 min
    Bit rate mode                  : Constant
    Bit rate                       : 576 kb/s
    Channel(s)                     : 6 channels
    Channel positions              : Front: L C R, Side: L R, LFE
    Sampling rate                  : 48.0 kHz
    Frame rate                     : 31.250 FPS (1536 SPF)
    Bit depth                      : 16 bits
    Compression mode               : Lossy
    Stream size                    : 399 MiB (4%)
    Title                          : ac3 48000Hz 6Ch.
    Service kind                   : Complete Main
    Default                        : Yes
    Forced                         : No
    Track/Position                 : 2

    Audio #3
    ID                             : 4
    Format                         : AC-3
    Format/Info                    : Audio Coding 3
    Codec ID                       : A_AC3
    Duration                       : 1 h 36 min
    Bit rate mode                  : Constant
    Bit rate                       : 576 kb/s
    Channel(s)                     : 6 channels
    Channel positions              : Front: L C R, Side: L R, LFE
    Sampling rate                  : 48.0 kHz
    Frame rate                     : 31.250 FPS (1536 SPF)
    Bit depth                      : 16 bits
    Compression mode               : Lossy
    Stream size                    : 399 MiB (4%)
    Title                          : ac3 48000Hz 6Ch.
    Service kind                   : Complete Main
    Default                        : Yes
    Forced                         : No
    Track/Position                 : 3

    Audio #4
    ID                             : 5
    Format                         : AC-3
    Format/Info                    : Audio Coding 3
    Codec ID                       : A_AC3
    Duration                       : 1 h 36 min
    Bit rate mode                  : Constant
    Bit rate                       : 192 kb/s
    Channel(s)                     : 2 channels
    Channel positions              : Front: L R
    Sampling rate                  : 48.0 kHz
    Frame rate                     : 31.250 FPS (1536 SPF)
    Bit depth                      : 16 bits
    Compression mode               : Lossy
    Stream size                    : 133 MiB (1%)
    Title                          : ac3 48000Hz 2Ch.
    Service kind                   : Complete Main
    Default                        : Yes
    Forced                         : No
    Track/Position                 : 4

    Text #1
    ID                             : 6
    Format                         : VobSub
    Codec ID                       : S_VOBSUB
    Codec ID/Info                  : Picture based subtitle format used on DVDs
    Title                          : dvd_subtitle 1920x1080
    Language                       : Chinese_Zhongwen
    Default                        : Yes
    Forced                         : No
    Track/Position                 : 5

    Text #2
    ID                             : 7
    Format                         : VobSub
    Codec ID                       : S_VOBSUB
    Codec ID/Info                  : Picture based subtitle format used on DVDs
    Title                          : dvd_subtitle 1920x1080
    Default                        : Yes
    Forced                         : No
    Track/Position                 : 6

    Text #3
    ID                             : 8
    Format                         : VobSub
    Codec ID                       : S_VOBSUB
    Codec ID/Info                  : Picture based subtitle format used on DVDs
    Title                          : dvd_subtitle 1920x1080
    Default                        : Yes
    Forced                         : No
    Track/Position                 : 7

    Text #4
    ID                             : 9
    Format                         : VobSub
    Codec ID                       : S_VOBSUB
    Codec ID/Info                  : Picture based subtitle format used on DVDs
    Title                          : dvd_subtitle 1920x1080
    Default                        : Yes
    Forced                         : No
    Track/Position                 : 8

    Menu
    00:00:00.000                   : :Chapter 1
    00:10:03.125                   : :Chapter 2
    00:14:02.625                   : :Chapter 3
    00:20:31.041                   : :Chapter 4
    00:29:47.166                   : :Chapter 5
    00:33:49.250                   : :Chapter 6
    00:41:16.000                   : :Chapter 7
    00:47:24.416                   : :Chapter 8
    00:58:22.416                   : :Chapter 9
    01:02:37.000                   : :Chapter 10
    01:10:30.416                   : :Chapter 11
    01:16:01.125                   : :Chapter 12
    01:23:01.500                   : :Chapter 13
    01:32:05.625                   : :Chapter 14
    01:35:49.833                   : :Chapter 15
    01:36:42.166                   : :Chapter 16

    0

    主题

    1

    好友

    2741

    积分

    炼气修士

    Rank: 2

  • TA的每日心情
    擦汗
    21 分钟前
  • 签到天数: 248 天

    [LV.8]以坛为家I

    升级   9.64%

    内力
    738 点
    在线时间
    120 小时
    银子
    3526 两
    威望
    0 点
    金叶子
    0 片
    最后登录
    2018-9-24
    注册时间
    2017-12-14
    帖子
    480
    精华
    0
    积分
    2741
    阅读权限
    30
    UID
    37023
    发表于 2018-3-8 13:08:45 |显示全部楼层
    感谢楼主分享加油

    6

    主题

    0

    好友

    3353

    积分

    炼气修士

    Rank: 2

  • TA的每日心情
    慵懒
    2018-9-10 23:28
  • 签到天数: 343 天

    [LV.8]以坛为家I

    升级   34.12%

    内力
    1196 点
    在线时间
    158 小时
    银子
    3682 两
    威望
    0 点
    金叶子
    0 片
    最后登录
    2018-9-10
    注册时间
    2017-8-10
    帖子
    840
    精华
    0
    积分
    3353
    阅读权限
    30
    UID
    36139
    发表于 2018-3-8 13:51:53 |显示全部楼层
    感谢分享,支持楼主一个。

    3

    主题

    4

    好友

    8066

    积分

    结丹修士

    Rank: 4

  • TA的每日心情
    擦汗
    2018-9-8 15:55
  • 签到天数: 419 天

    [LV.9]以坛为家II

    升级   22.64%

    内力
    1089 点
    在线时间
    155 小时
    银子
    13333 两
    威望
    0 点
    金叶子
    0 片
    最后登录
    2018-9-8
    注册时间
    2014-3-7
    帖子
    338
    精华
    0
    积分
    8066
    阅读权限
    50
    UID
    29087
    发表于 2018-3-9 10:10:17 |显示全部楼层
    这个体积是对硬盘的考验!

    9

    主题

    0

    好友

    1617

    积分

    凡人

    Rank: 1

  • TA的每日心情
    郁闷
    4 天前
  • 签到天数: 221 天

    [LV.7]常住居民III

    升级   64.68%

    内力
    767 点
    在线时间
    195 小时
    银子
    906 两
    威望
    1 点
    金叶子
    0 片
    最后登录
    2018-9-21
    注册时间
    2015-3-25
    帖子
    208
    精华
    1
    积分
    1617
    阅读权限
    20
    UID
    31905
    发表于 2018-3-14 10:39:43 |显示全部楼层
    这个出蓝光版了?画质还可以

    12

    主题

    2

    好友

    8万

    积分

    化神修士

    Rank: 6Rank: 6

  • TA的每日心情

    昨天 19:21
  • 签到天数: 1579 天

    [LV.Master]伴坛终老

    升级   3.75%

    内力
    4695 点
    在线时间
    1470 小时
    银子
    155994 两
    威望
    0 点
    金叶子
    0 片
    最后登录
    2018-9-24
    注册时间
    2014-5-2
    帖子
    2187
    精华
    0
    积分
    85632
    阅读权限
    70
    UID
    29667

    新人进步奖 灌水天才奖

    发表于 2018-3-15 19:48:33 |显示全部楼层
    谢谢分享                     

    1

    主题

    1

    好友

    857

    积分

    凡人

    Rank: 1

  • TA的每日心情
    开心
    2018-4-13 22:49
  • 签到天数: 1 天

    [LV.1]初来乍到

    升级   34.28%

    内力
    51 点
    在线时间
    15 小时
    银子
    1552 两
    威望
    0 点
    金叶子
    0 片
    最后登录
    2018-6-23
    注册时间
    2018-4-13
    帖子
    39
    精华
    0
    积分
    857
    阅读权限
    20
    UID
    37291
    发表于 2018-4-15 16:28:07 |显示全部楼层
    感谢楼主分享

    3

    主题

    0

    好友

    1万

    积分

    元婴修士

    Rank: 5Rank: 5

  • TA的每日心情
    奋斗
    3 天前
  • 签到天数: 856 天

    [LV.10]以坛为家III

    升级   0.48%

    内力
    2582 点
    在线时间
    1463 小时
    银子
    9363 两
    威望
    0 点
    金叶子
    0 片
    最后登录
    2018-9-21
    注册时间
    2013-3-7
    帖子
    734
    精华
    0
    积分
    10190
    阅读权限
    60
    UID
    25404
    发表于 2018-7-10 19:46:03 |显示全部楼层
    哇,此片有这画质,太爽啦
    您需要登录后才可以回帖 登录 | 注册

    港知堂社区·免责声明
    本站仅供网友自由讨论使用,所有个人言论均不代表本站立场,与本站立场无关,本站不会对其內容负任何责任。
    本站内容均经过严格审查筛选,内容健康,如发现违反国家法律法规的內容,请立即联系我们,我们立刻从网站上删除,并致以最深的歉意。

    小黑屋|Archiver|排行榜|港知堂社区 | 港片爱好者之家 ( 2009-2018 )

    Powered by Discuz! X2.5

    GMT+8, 2018-9-24 09:51 , Processed in 0.533423 second(s), 37 queries , Gzip On.

    回顶部