找回密码
 注册
查看: 1648|回复: 15

[百度] [香港][1981][术士神传][国语无字][LD-MKV/1.36GB][原创压制]

[复制链接]

116

主题

5

好友

6万

积分

化神修士

Rank: 6Rank: 6

  • TA的每日心情
    奋斗
    2019-8-11 08:41
  • 签到天数: 1044 天

    [LV.10]以坛为家III

    升级   1.12%

    内力
    2729 点
    在线时间
    1519 小时
    银子
    109539 两
    威望
    13 点
    金叶子
    0 片
    最后登录
    2019-8-11
    注册时间
    2013-3-8
    帖子
    925
    精华
    1
    积分
    60604
    阅读权限
    70
    UID
    25630
    发表于 2018-6-21 06:56:54 |显示全部楼层

    ◎译  名 Ninja.In.The.Deadly.Trap
    ◎片  名 术士神传
    ◎年  代 1981
    ◎地  区 中国香港
    ◎类  别 忍术 / 功夫
    ◎语  言 国语
    ◎字  幕 无
    ◎豆瓣评分  6.3/10
    ◎豆瓣链接   https://movie.douban.com/subject/3006076/
    ◎文件格式 x264+AC3
    ◎视频尺寸 720x544
    ◎文件大小 1.36G
    ◎片  长 1:33:16
    ◎导  演 郭追 / 江生 / 鹿峰
    ◎主  演   狄龙 / 江生 / 郭追 / 鹿峰 / 仓田保昭

    ◎简  介
            明末, 日寇在中國沿海各省為患. 華將, 奮力退日寇. 日本將領獲悉將軍手持一本武學奇書, 便特派遺一隊精通魔法的忍者到中國去搶劫此書. 華將得知此事後, 即邀請一位老忍者, 率領旗下三名徒兒, 對抗日軍. 經過連場惡鬥, 兩人終面對面來一場中日大戰.
    ◎参    数  

    E:\术士神传.Ninja.In.The.Deadly.Trap.1981.LDRip.x264.AC3-DEARL.mkv
      General
        Unique ID : 236270512020832932883744541680405363371 (0xB1C00B9FD62A12F6A68C7B98E974BAAB)
        Complete name : E:\术士神传.Ninja.In.The.Deadly.Trap.1981.LDRip.x264.AC3-DEARL.mkv
        Format : Matroska
        Format version : Version 2
        File size : 1.37 GiB
        Duration : 1h 33mn
        Overall bit rate : 2 099 Kbps
        Encoded date : UTC 2017-11-06 00:36:52
        Writing application : mkvmerge v4.0.0 ('The Stars were mine') 编译于 Jun  6 2010 16:18:42
        Writing library : libebml v1.0.0 + libmatroska v1.0.0
      Video #1
        ID : 1
        Format : AVC
        Format/Info : Advanced Video Codec
        Format profile : High@L5.1
        Format settings, CABAC : Yes
        Format settings, ReFrames : 15 frames
        Codec ID : V_MPEG4/ISO/AVC
        Duration : 1h 33mn
        Bit rate : 1 646 Kbps
        Width : 720 pixels
        Height : 544 pixels
        Display aspect ratio : 4:3
        Frame rate mode : Constant
        Frame rate : 29.970 fps
        Color space : YUV
        Chroma subsampling : 4:2:0
        Bit depth : 8 bits
        Scan type : Progressive
        Bits/(Pixel*Frame) : 0.140
        Stream size : 1.05 GiB (77%)
        Writing library : x264 core 120 r2164 da19765
        Encoding settings : cabac=1 / ref=16 / deblock=1:-2:-1 / analyse=0x3:0x113 / me=umh / subme=9 / psy=1 / psy_rd=1.00:0.00 / mixed_ref=1 / me_range=32 / chroma_me=1 / trellis=1 / 8x8dct=1 / cqm=0 / deadzone=21,11 / fast_pskip=0 / chroma_qp_offset=-2 / threads=6 / sliced_threads=0 / nr=0 / decimate=0 / interlaced=0 / bluray_compat=0 / constrained_intra=0 / bframes=3 / b_pyramid=1 / b_adapt=2 / b_bias=0 / direct=1 / weightb=1 / open_gop=0 / weightp=2 / keyint=300 / keyint_min=29 / scenecut=40 / intra_refresh=0 / rc_lookahead=245 / rc=2pass / mbtree=1 / bitrate=1646 / ratetol=4.0 / qcomp=0.60 / qpmin=10 / qpmax=51 / qpstep=4 / cplxblur=20.0 / qblur=0.5 / ip_ratio=1.40 / aq=1:1.00
        Language : Chinese
        Default : Yes
        Forced : No
      Audio #2
        ID : 2
        Format : AC-3
        Format/Info : Audio Coding 3
        Mode extension : CM (complete main)
        Format settings, Endianness : Big
        Codec ID : A_AC3
        Duration : 1h 33mn
        Bit rate mode : Constant
        Bit rate : 448 Kbps
        Channel count : 2 channels
        Channel positions : Front: L R
        Sampling rate : 48.0 KHz
        Bit depth : 16 bits
        Compression mode : Lossy
        Stream size : 299 MiB (21%)
        Title : 国语
        Language : Chinese
        Default : Yes
        Forced : No
    ◎截     图   









    ◎下载地址

    购买主题 已有 13 人购买  本主题需向作者支付 200 两银子 才能浏览
    缺银子?点我快速充值:银子充值

    1

    主题

    0

    好友

    7818

    积分

    结丹修士

    Rank: 4

  • TA的每日心情
    开心
    前天 17:03
  • 签到天数: 1659 天

    [LV.Master]伴坛终老

    升级   12.72%

    内力
    3950 点
    在线时间
    1347 小时
    银子
    2348 两
    威望
    0 点
    金叶子
    5 片
    最后登录
    2019-8-22
    注册时间
    2009-8-8
    帖子
    1042
    精华
    0
    积分
    7818
    阅读权限
    50
    UID
    349
    发表于 2018-6-21 11:15:10 |显示全部楼层
    楼主发的片子,音质画质非常棒,继续支持。
    该会员没有填写今日想说内容.

    2

    主题

    0

    好友

    1万

    积分

    元婴修士

    Rank: 5Rank: 5

  • TA的每日心情
    开心
    昨天 02:21
  • 签到天数: 1233 天

    [LV.10]以坛为家III

    升级   0.05%

    内力
    2921 点
    在线时间
    898 小时
    银子
    10614 两
    威望
    -1 点
    金叶子
    0 片
    最后登录
    2019-8-23
    注册时间
    2012-8-20
    帖子
    980
    精华
    0
    积分
    10019
    阅读权限
    60
    UID
    23124
    发表于 2018-6-21 14:36:26 |显示全部楼层
    谢谢楼主分享好电影。
    半夜了,还没休息,上来看看。

    5

    主题

    7

    好友

    3400

    积分

    炼气修士

    Rank: 2

  • TA的每日心情
    开心
    2019-7-2 23:12
  • 签到天数: 790 天

    [LV.10]以坛为家III

    升级   36%

    内力
    1882 点
    在线时间
    716 小时
    银子
    172 两
    威望
    0 点
    金叶子
    0 片
    最后登录
    2019-7-2
    注册时间
    2011-5-26
    帖子
    648
    精华
    0
    积分
    3400
    阅读权限
    30
    UID
    12739
    发表于 2018-6-27 16:23:58 |显示全部楼层
    太棒了,这个片子真好看
    签到领奖

    88

    主题

    5

    好友

    1万

    积分

    元婴修士

    Rank: 5Rank: 5

  • TA的每日心情
    开心
    4 小时前
  • 签到天数: 1479 天

    [LV.10]以坛为家III

    升级   4.87%

    内力
    3990 点
    在线时间
    2563 小时
    银子
    5384 两
    威望
    23 点
    金叶子
    5 片
    最后登录
    2019-8-24
    注册时间
    2014-5-3
    帖子
    1654
    精华
    13
    积分
    11949
    阅读权限
    60
    UID
    29695
    发表于 2018-6-28 12:37:10 |显示全部楼层
    谢谢分享很不错的资源

    0

    主题

    0

    好友

    7659

    积分

    结丹修士

    Rank: 4

  • TA的每日心情
    开心
    2019-3-18 18:52
  • 签到天数: 1426 天

    [LV.10]以坛为家III

    升级   6.36%

    内力
    3675 点
    在线时间
    1571 小时
    银子
    1683 两
    威望
    0 点
    金叶子
    0 片
    最后登录
    2019-5-30
    注册时间
    2011-11-21
    帖子
    457
    精华
    0
    积分
    7659
    阅读权限
    50
    UID
    19645
    发表于 2018-7-4 17:53:35 |显示全部楼层
    谢谢分享
    2012.09.07签到 !

    0

    主题

    0

    好友

    9987

    积分

    结丹修士

    Rank: 4

  • TA的每日心情

    昨天 19:56
  • 签到天数: 2525 天

    [LV.Master]伴坛终老

    升级   99.48%

    内力
    5576 点
    在线时间
    1308 小时
    银子
    3790 两
    威望
    -20 点
    金叶子
    0 片
    最后登录
    2019-8-23
    注册时间
    2009-8-16
    帖子
    1436
    精华
    0
    积分
    9987
    阅读权限
    50
    UID
    403
    发表于 2018-7-16 21:45:37 |显示全部楼层
    这部早期香港的影片, 没有看过,下载过来看看,谢谢分享
    该会员没有填写今日想说内容.

    7

    主题

    1

    好友

    2047

    积分

    凡人

    Rank: 1

  • TA的每日心情
    郁闷
    3 天前
  • 签到天数: 350 天

    [LV.8]以坛为家I

    升级   81.88%

    内力
    1190 点
    在线时间
    380 小时
    银子
    217 两
    威望
    -2 点
    金叶子
    5 片
    最后登录
    2019-8-21
    注册时间
    2011-3-2
    帖子
    482
    精华
    0
    积分
    2047
    阅读权限
    20
    UID
    10369
    发表于 2018-8-10 01:21:03 |显示全部楼层
    这个资源太多了,便宜点还可以买来看
    每天晚上夜跑跑起来。。

    1

    主题

    0

    好友

    1万

    积分

    元婴修士

    Rank: 5Rank: 5

  • TA的每日心情
    奋斗
    2019-4-29 17:52
  • 签到天数: 1242 天

    [LV.10]以坛为家III

    升级   2.32%

    内力
    2130 点
    在线时间
    1120 小时
    银子
    13112 两
    威望
    0 点
    金叶子
    0 片
    最后登录
    2019-4-29
    注册时间
    2012-4-29
    帖子
    828
    精华
    0
    积分
    10926
    阅读权限
    60
    UID
    21926
    发表于 2018-10-1 16:11:08 |显示全部楼层
    支持一下楼主吧,希望是清晰的。
    该会员没有填写今日想说内容.

    0

    主题

    1

    好友

    46

    积分

    凡人

    Rank: 1

    该用户从未签到

    升级   1.84%

    内力
    16 点
    在线时间
    8 小时
    银子
    27 两
    威望
    0 点
    金叶子
    0 片
    最后登录
    2018-12-12
    注册时间
    2018-11-9
    帖子
    3
    精华
    0
    积分
    46
    阅读权限
    20
    UID
    37750
    发表于 2018-11-9 08:50:03 |显示全部楼层
    谢谢楼主的分享这个以前就看过了很好看的很经典
    您需要登录后才可以回帖 登录 | 注册

    港知堂社区·免责声明
    本站仅供网友自由讨论使用,所有个人言论均不代表本站立场,与本站立场无关,本站不会对其內容负任何责任。
    本站内容均经过严格审查筛选,内容健康,如发现违反国家法律法规的內容,请立即联系我们,我们立刻从网站上删除,并致以最深的歉意。

    小黑屋|Archiver|排行榜| ( 2009-2019 )

    Powered by Discuz! X2.5

    GMT+8, 2019-8-24 10:57 , Processed in 3.478178 second(s), 28 queries , Gzip On.

    回顶部