港知堂社区

 找回密码
 注册
查看: 147|回复: 7

【1989】【度盘】【香港】【至尊无上】【五语中字】【附可选片段】【11.3GB】

[复制链接]
  • TA的每日心情
    无聊
    2019-2-11 13:02
  • 签到天数: 360 天

    [LV.8]以坛为家I

    发表于 2021-3-11 15:48:59 | 显示全部楼层 |阅读模式

    ◎译  名 至尊无上
    ◎片  名 Casino Raiders
    ◎年  代 1989
    ◎地      区   香港
    ◎类  别 动作
    ◎语  言 国语 粤语
    ◎字  幕 中文
    ◎文件格式 mkv
    ◎视频尺寸 1920*1080
    ◎片  长 125分钟
    ◎导  演 王晶
    ◎主  演   刘德华 谭咏麟 关之琳 陈玉莲

    ◎简  介
    General
    Unique ID                   : 176199979832404399514524671392330234833 (0x848EE1B972BF64CED53DD182E1CF3BD1)
    Complete name               :
    Format                      : Matroska
    Format version              : Version 2
    File size                   : 10.7 GiB
    Duration                    : 2 h 5 min
    Overall bit rate            : 12.3 Mb/s
    Encoded date                : UTC 2021-03-02 06:02:21
    Writing application         : mkvmerge v46.0.0 ('No Deeper Escape') 64-bit
    Writing library             : libebml v1.3.10 + libmatroska v1.5.2

    Video
    ID                          : 1
    Format                      : AVC
    Format/Info                 : Advanced Video Codec
    Format profile              : High [email protected]
    Format settings             : CABAC / 4 Ref Frames
    Format settings, CABAC      : Yes
    Format settings, Reference  : 4 frames
    Codec ID                    : V_MPEG4/ISO/AVC
    Duration                    : 2 h 5 min
    Bit rate                    : 10 000 kb/s
    Width                       : 1 920 pixels
    Height                      : 1 080 pixels
    Display aspect ratio        : 16:9
    Frame rate mode             : Constant
    Frame rate                  : 24.000 FPS
    Color space                 : YUV
    Chroma subsampling          : 4:2:0
    Bit depth                   : 10 bits
    Scan type                   : Progressive
    Bits/(Pixel*Frame)          : 0.201
    Stream size                 : 8.74 GiB (81%)
    Title                       : 至尊无上
    Writing library             : x264 core 160 r3000 33f9e14
    Encoding settings           : cabac=1 / ref=3 / deblock=1:0:0 / analyse=0x3:0x113 / me=hex / subme=7 / psy=1 / psy_rd=1.00:0.00 / mixed_ref=1 / me_range=16 / chroma_me=1 / trellis=1 / 8x8dct=1 / cqm=0 / deadzone=21,11 / fast_pskip=1 / chroma_qp_offset=-2 / threads=6 / lookahead_threads=1 / sliced_threads=0 / nr=0 / decimate=1 / interlaced=0 / bluray_compat=0 / constrained_intra=0 / bframes=3 / b_pyramid=2 / b_adapt=1 / b_bias=0 / direct=1 / weightb=1 / open_gop=0 / weightp=2 / keyint=240 / keyint_min=24 / scenecut=40 / intra_refresh=0 / rc_lookahead=40 / rc=2pass / mbtree=1 / bitrate=10000 / ratetol=1.0 / qcomp=0.60 / qpmin=0 / qpmax=81 / qpstep=4 / cplxblur=20.0 / qblur=0.5 / vbv_maxrate=300000 / vbv_bufsize=300000 / nal_hrd=none / filler=0 / ip_ratio=1.40 / aq=1:1.00
    Default                     : Yes
    Forced                      : No

    Audio #1
    ID                          : 2
    Format                      : AC-3
    Format/Info                 : Audio Coding 3
    Commercial name             : Dolby Digital
    Codec ID                    : A_AC3
    Duration                    : 2 h 4 min
    Bit rate mode               : Constant
    Bit rate                    : 640 kb/s
    Channel(s)                  : 2 channels
    Channel layout              : L R
    Sampling rate               : 48.0 kHz
    Frame rate                  : 31.250 FPS (1536 SPF)
    Bit depth                   : 16 bits
    Compression mode            : Lossy
    Stream size                 : 572 MiB (5%)
    Title                       : 国语2.0(域高)
    Language                    : Chinese
    Service kind                : Complete Main
    Default                     : Yes
    Forced                      : No

    Audio #2
    ID                          : 3
    Format                      : AC-3
    Format/Info                 : Audio Coding 3
    Commercial name             : Dolby Digital
    Codec ID                    : A_AC3
    Duration                    : 2 h 4 min
    Bit rate mode               : Constant
    Bit rate                    : 224 kb/s
    Channel(s)                  : 2 channels
    Channel layout              : L R
    Sampling rate               : 48.0 kHz
    Frame rate                  : 31.250 FPS (1536 SPF)
    Bit depth                   : 16 bits
    Compression mode            : Lossy
    Stream size                 : 199 MiB (2%)
    Title                       : 国语2.0
    Language                    : Chinese
    Service kind                : Complete Main
    Default                     : No
    Forced                      : No

    Audio #3
    ID                          : 4
    Format                      : AC-3
    Format/Info                 : Audio Coding 3
    Commercial name             : Dolby Digital
    Codec ID                    : A_AC3
    Duration                    : 2 h 5 min
    Bit rate mode               : Constant
    Bit rate                    : 384 kb/s
    Channel(s)                  : 6 channels
    Channel layout              : L R C LFE Ls Rs
    Sampling rate               : 48.0 kHz
    Frame rate                  : 31.250 FPS (1536 SPF)
    Bit depth                   : 16 bits
    Compression mode            : Lossy
    Stream size                 : 344 MiB (3%)
    Title                       : 国语5.1(寰宇)
    Language                    : Chinese
    Service kind                : Complete Main
    Default                     : No
    Forced                      : No

    Audio #4
    ID                          : 5
    Format                      : AC-3
    Format/Info                 : Audio Coding 3
    Commercial name             : Dolby Digital
    Codec ID                    : A_AC3
    Duration                    : 2 h 4 min
    Bit rate mode               : Constant
    Bit rate                    : 640 kb/s
    Channel(s)                  : 2 channels
    Channel layout              : L R
    Sampling rate               : 48.0 kHz
    Frame rate                  : 31.250 FPS (1536 SPF)
    Bit depth                   : 16 bits
    Compression mode            : Lossy
    Stream size                 : 572 MiB (5%)
    Title                       : 粤语2.0(域高)
    Language                    : Chinese
    Service kind                : Complete Main
    Default                     : No
    Forced                      : No

    Audio #5
    ID                          : 6
    Format                      : AC-3
    Format/Info                 : Audio Coding 3
    Commercial name             : Dolby Digital
    Codec ID                    : A_AC3
    Duration                    : 2 h 5 min
    Bit rate mode               : Constant
    Bit rate                    : 384 kb/s
    Channel(s)                  : 6 channels
    Channel layout              : L R C LFE Ls Rs
    Sampling rate               : 48.0 kHz
    Frame rate                  : 31.250 FPS (1536 SPF)
    Bit depth                   : 16 bits
    Compression mode            : Lossy
    Stream size                 : 344 MiB (3%)
    Title                       : 粤语5.1(寰宇)
    Language                    : Chinese
    Service kind                : Complete Main
    Default                     : No
    Forced                      : No

    Text #1
    ID                          : 7
    Format                      : UTF-8
    Codec ID                    : S_TEXT/UTF8
    Codec ID/Info               : UTF-8 Plain Text
    Duration                    : 2 h 0 min
    Bit rate                    : 40 b/s
    Count of elements           : 1273
    Stream size                 : 35.4 KiB (0%)
    Title                       : 繁体中文(国语)
    Language                    : Chinese
    Default                     : Yes
    Forced                      : No

    Text #2
    ID                          : 8
    Format                      : UTF-8
    Codec ID                    : S_TEXT/UTF8
    Codec ID/Info               : UTF-8 Plain Text
    Duration                    : 2 h 0 min
    Bit rate                    : 35 b/s
    Count of elements           : 1304
    Stream size                 : 31.5 KiB (0%)
    Title                       : 繁体中文(粤语)
    Language                    : Chinese
    Default                     : No
    Forced                      : No



    ◎截    图
    zzws 5audios v1.0.mkv.jpg
    宫木父子之死.jpg
    01.jpg
    02.jpg
    密谋.jpg
    03.jpg

    链接:https://pan.baidu.com/s/1R6GW9t1ZITZQnCous1orkw


    购买主题 已有 7 人购买  本主题需向作者支付 800 两银子 才能浏览
    缺银子?点我快速充值:银子充值
  • TA的每日心情
    开心
    昨天 07:58
  • 签到天数: 2066 天

    [LV.Master]伴坛终老

    发表于 2021-3-11 16:28:50 | 显示全部楼层
    支持一下楼主,非常喜欢的赌片,谢谢
  • TA的每日心情
    开心
    3 天前
  • 签到天数: 1551 天

    [LV.Master]伴坛终老

    发表于 2021-3-11 18:06:58 | 显示全部楼层
    楼主压制辛苦了 很喜欢这部啊
  • TA的每日心情
    开心
    2021-3-31 07:57
  • 签到天数: 1210 天

    [LV.10]以坛为家III

    发表于 2021-3-12 08:13:56 | 显示全部楼层
    谢谢羊总压制,买完破产了。。。
  • TA的每日心情
    开心
    昨天 08:50
  • 签到天数: 663 天

    [LV.9]以坛为家II

    发表于 2021-3-12 17:56:51 | 显示全部楼层
    這麼齊全的素材,收藏一個
  • TA的每日心情
    无聊
    昨天 08:11
  • 签到天数: 2274 天

    [LV.Master]伴坛终老

    发表于 2021-3-13 08:29:45 | 显示全部楼层
    % K6 O) ^/ g6 l5 M7 m# I
    购买支持下。。。兄弟辛苦了
  • TA的每日心情
    郁闷
    2020-12-27 22:50
  • 签到天数: 3 天

    [LV.2]偶尔看看I

    发表于 2021-3-13 11:35:40 | 显示全部楼层
    支持一下楼主,非常喜欢的赌片,谢谢
    ' W3 W+ w: Y* p: `

    该用户从未签到

    发表于 2021-3-17 20:49:49 | 显示全部楼层
    感谢分享!发帖辛苦!
    您需要登录后才可以回帖 登录 | 注册

    本版积分规则

    港知堂社区·免责声明
    本站仅供网友自由讨论使用,所有个人言论均不代表本站立场,与本站立场无关,本站不会对其內容负任何责任。
    本站内容均经过严格审查筛选,内容健康,如发现违反国家法律法规的內容,请立即联系我们,我们立刻从网站上删除,并致以最深的歉意。

    小黑屋|Archiver|排行榜|港知堂社区 ( 2009-2021 )

    GMT+8, 2021-4-13 02:39 , Processed in 0.060121 second(s), 30 queries , Gzip On.

    Powered by Discuz! X3.4

    Copyright © 2001-2020, Tencent Cloud.

    快速回复 返回顶部 返回列表